#TITLE:Technodrome;
#SUBTITLE:TMNT Turtles In Time;
#ARTIST:Konami (K.Uehara, H. Uekoh);
#TITLETRANSLIT:;
#SUBTITLETRANSLIT:;
#ARTISTTRANSLIT:;
#CREDIT:;
#BANNER:Technodrome-bn.jpg;
#BACKGROUND:Technodrome-bg.jpg;
#LYRICSPATH:;
#CDTITLE:cdtitle.png;
#MUSIC:Technodrome.mp3;
#OFFSET:-6.241;
#SAMPLESTART:25.040;
#SAMPLELENGTH:12.000;
#SELECTABLE:YES;
#BPMS:0.000=141.610;
#STOPS:;
#BGCHANGES:;
// cache tags:
#FIRSTBEAT:3.500;
#LASTBEAT:171.500;
#SONGFILENAME:Songs/Music V.I.P ^_^/Technodrome (Bursurk Lurk)/Technodrome.sm;
#HASMUSIC:1;
#HASBANNER:1;
#MUSICLENGTH:92.760;
// end cache tags

//---------------dance-single - ----------------
#NOTES:
     dance-single:
     :
     Hard:
     12:
     1.000,1.000,1.000,0.065,1.000,639.000,228.000,6.000,0.000,90.000:



0000
0000
0000
0000
0000
0000
0000
0000
0000
0000
0000
0000
0000
0000
1110
1110
,
1110
0000
1101
0000
0000
0000
0000
0000
0000
0000
0000
0000
0001
1000
0001
0000
0010
0000
0010
0000
0100
0001
0100
0000
1000
0000
1000
0000
0111
0000
0111
0000
,
0111
1110
0000
1110
1101
0000
0010
0010
0100
0100
1000
1000
0111
0111
1000
0100
,
1010
0001
1000
0100
1010
0001
1000
0100
1010
0001
0010
1000
0110
0001
1000
0100
,
1010
0001
1000
0100
1010
0001
1000
0100
1010
0001
0010
0100
1010
0001
1000
0100
,
1010
0001
1000
0100
1010
0001
1000
0100
1010
0001
0010
0100
1010
0001
1000
0100
,
1001
0000
0010
0000
0100
0000
1000
0000
0101
0000
1000
0000
0100
0001
0010
0000
0001
0000
1000
0001
0010
0000
0101
0000
0101
0000
0101
0000
1000
0000
0100
0000
,
1010
0001
1000
0100
1010
0001
1000
0100
1010
0001
0100
0010
0101
0010
1000
0100
,
1010
0001
1000
0100
1010
0001
1000
0100
1010
0001
0010
0100
1010
0001
1000
0100
,
1010
0001
1000
0100
1010
0001
1000
0100
1010
0001
1000
0100
1010
0001
0010
1000
,
0011
1000
0010
0001
1010
0100
0001
1010
0100
0011
0011
0011
0011
0011
1000
0100
,
1010
0001
1000
0100
1010
0001
1000
0100
1010
0001
0100
1000
0101
0010
1000
0100
,
1010
0001
1000
0100
1010
0001
1000
0100
1010
0001
0010
0100
1010
0001
1000
0100
,
1010
0001
1000
0100
1010
0001
1000
0100
1010
0001
0100
0001
1010
0001
1000
0100
,
0011
1000
0100
0010
1100
0001
1110
1110
0000
1110
0000
1110
0000
1110
0001
0100
,
1001
0010
0000
0001
0110
1000
0001
0100
1001
0010
0000
0001
0110
1000
0001
0100
,
1001
0010
0000
0001
0110
1000
0001
0100
0001
0100
0010
1000
0110
1000
0001
0100
,
1001
0010
0000
0001
0110
1000
0001
0100
1001
0010
0000
0001
0110
1000
0100
0100
,
0011
0010
0001
0001
1100
0001
0001
0010
1001
0100
1011
2022
0000
3033
0001
0100
,
1001
0010
0000
0001
0110
1000
0001
0100
1001
0010
0000
0001
0110
1000
0001
0100
,
1001
0000
0010
0000
0000
0000
0001
0000
0110
0000
1000
0000
0001
0010
0100
0000
0001
0010
0100
0000
0001
0010
0100
0000
0001
0010
0100
0000
0011
0000
0100
0000
,
1001
0010
0000
0001
0110
1000
0001
0100
1001
0010
0000
0001
0110
1000
0001
0001
,
1010
0010
0100
0100
1001
1000
0111
0111
0111
0111
0111
0111
0111
0111
1110
1110
,
1110
1110
1011
1110
0000
1110
1011
1110
0000
1110
1011
1110
0000
1110
1110
1110
,
1110
1110
1011
1110
0000
1110
1011
1110
0000
1110
1011
0100
0100
0001
0001
0010
,
0101
1000
0001
0010
0101
1000
0001
0010
0101
1000
0010
0001
1010
0100
0001
0010
,
0101
1000
0001
0010
0101
1000
0001
0010
0101
1000
0100
0010
0101
1000
0001
0010
,
0101
1000
0001
0010
0101
1000
0001
0010
0101
1000
0010
1000
0101
1000
0001
0010
,
1100
0001
0010
1000
0101
0010
1000
0101
0010
1100
1100
1100
1100
1100
0001
0010
,
0101
1000
0001
0010
0101
1000
0001
0010
0101
1000
0010
0001
1010
0100
0001
0010
,
0101
1000
0001
0010
0101
1000
0001
0010
0101
1000
0100
0010
0101
1000
0001
0010
,
0101
1000
0001
0010
0101
1000
0001
0010
0101
1000
0010
1000
0101
1000
0001
0010
,
1100
0001
0010
0100
0011
1000
0111
0111
0000
0111
0000
0111
0000
0111
1000
0010
,
1001
0100
0000
1000
0110
0001
1000
0010
1001
0100
0000
1000
0110
0001
1000
0010
,
1001
0100
0000
1000
0110
0001
1000
0010
1000
0010
0100
0001
0110
0001
1000
0010
,
1001
0100
0000
1000
0110
0001
1000
0010
1001
0100
0000
1000
0110
0001
0010
0010
,
1100
0100
1000
1000
0011
1000
1000
0100
1001
0010
1101
2202
0000
3303
1000
0010
,
1001
0100
0000
1000
0110
0001
1000
0010
1001
0100
0000
1000
0110
0001
1000
0010
,
1001
0000
0100
0000
0000
0000
1000
0000
0110
0000
0001
0000
1000
0100
0010
0000
1000
0100
0010
0000
1000
0100
0010
0000
1000
0100
0010
0000
1000
0000
0010
0000
,
1001
0100
0000
1000
0110
0001
1000
0010
1001
0100
0000
1000
0110
0001
1000
1000
,
0101
0100
0010
0010
1001
0001
1110
1110
1110
1110
1110
1110
1110
1110
0111
0111
,
0111
0111
1101
0111
0000
0111
1101
0111
0000
0111
1101
0111
0000
0111
0111
0111
,
0111
0111
1101
0111
0000
0111
1101
0111
0000
0111
1101
0010
0010
0100
0100
0000
;

//---------------dance-single - ----------------
#NOTES:
     dance-single:
     :
     Medium:
     11:
     1.000,1.000,1.000,0.043,1.000,639.000,228.000,4.000,0.000,0.000:

0000
0000
0000
0000
0000
0000
0000
0000
0000
0000
0000
0000
0000
0000
0110
0110
,
0110
0000
0101
0000
0000
0000
0000
0000
0000
0000
0000
0000
0001
1000
0001
0000
0010
0000
0010
0000
0100
0001
0100
0000
1000
0000
1000
0000
0011
0000
0011
0000
,
0011
0110
0000
0110
0101
0000
0010
0010
0100
0100
1000
1000
0011
0011
1000
0100
,
1010
0001
1000
0100
1010
0001
1000
0100
1010
0001
0010
1000
0110
0001
1000
0100
,
1010
0001
1000
0100
1010
0001
1000
0100
1010
0001
0010
0100
1010
0001
1000
0100
,
1010
0001
1000
0100
1010
0001
1000
0100
1010
0001
0010
0100
1010
0001
1000
0100
,
1001
0000
0010
0000
0100
0000
1000
0000
0101
0000
1000
0000
0100
0001
0010
0000
0001
0000
1000
0001
0010
0000
0101
0000
0101
0000
0101
0000
1000
0000
0100
0000
,
1010
0001
1000
0100
1010
0001
1000
0100
1010
0001
0100
0010
0101
0010
1000
0100
,
1010
0001
1000
0100
1010
0001
1000
0100
1010
0001
0010
0100
1010
0001
1000
0100
,
1010
0001
1000
0100
1010
0001
1000
0100
1010
0001
1000
0100
1010
0001
0010
1000
,
0011
1000
0010
0001
1010
0100
0001
1010
0100
0011
0011
0011
0011
0011
1000
0100
,
1010
0001
1000
0100
1010
0001
1000
0100
1010
0001
0100
1000
0101
0010
1000
0100
,
1010
0001
1000
0100
1010
0001
1000
0100
1010
0001
0010
0100
1010
0001
1000
0100
,
1010
0001
1000
0100
1010
0001
1000
0100
1010
0001
0100
0001
1010
0001
1000
0100
,
0011
1000
0100
0010
1100
0001
0110
0110
0000
0110
0000
0110
0000
0110
0001
0100
,
1001
0010
0000
0001
0110
1000
0001
0100
1001
0010
0000
0001
0110
1000
0001
0100
,
1001
0010
0000
0001
0110
1000
0001
0100
0001
0100
0010
1000
0110
1000
0001
0100
,
1001
0010
0000
0001
0110
1000
0001
0100
1001
0010
0000
0001
0110
1000
0100
0100
,
0011
0010
0001
0001
1100
0001
0001
0010
1001
0100
0011
0022
0000
0033
0001
0100
,
1001
0010
0000
0001
0110
1000
0001
0100
1001
0010
0000
0001
0110
1000
0001
0100
,
1001
0000
0010
0000
0000
0000
0001
0000
0110
0000
1000
0000
0001
0010
0100
0000
0001
0010
0100
0000
0001
0010
0100
0000
0001
0010
0100
0000
0011
0000
0100
0000
,
1001
0010
0000
0001
0110
1000
0001
0100
1001
0010
0000
0001
0110
1000
0001
0001
,
1010
0010
0100
0100
1001
1000
0011
0011
0011
0011
0011
0011
0011
0011
0110
0110
,
0110
0110
0011
0110
0000
0110
0011
0110
0000
0110
0011
0110
0000
0110
0110
0110
,
0110
0110
0011
0110
0000
0110
0011
0110
0000
0110
0011
0100
0100
0001
0001
0010
,
0101
1000
0001
0010
0101
1000
0001
0010
0101
1000
0010
0001
1010
0100
0001
0010
,
0101
1000
0001
0010
0101
1000
0001
0010
0101
1000
0100
0010
0101
1000
0001
0010
,
0101
1000
0001
0010
0101
1000
0001
0010
0101
1000
0010
1000
0101
1000
0001
0010
,
1100
0001
0010
1000
0101
0010
1000
0101
0010
1100
1100
1100
1100
1100
0001
0010
,
0101
1000
0001
0010
0101
1000
0001
0010
0101
1000
0010
0001
1010
0100
0001
0010
,
0101
1000
0001
0010
0101
1000
0001
0010
0101
1000
0100
0010
0101
1000
0001
0010
,
0101
1000
0001
0010
0101
1000
0001
0010
0101
1000
0010
1000
0101
1000
0001
0010
,
1100
0001
0010
0100
0011
1000
0011
0011
0000
0011
0000
0011
0000
0011
1000
0010
,
1001
0100
0000
1000
0110
0001
1000
0010
1001
0100
0000
1000
0110
0001
1000
0010
,
1001
0100
0000
1000
0110
0001
1000
0010
1000
0010
0100
0001
0110
0001
1000
0010
,
1001
0100
0000
1000
0110
0001
1000
0010
1001
0100
0000
1000
0110
0001
0010
0010
,
1100
0100
1000
1000
0011
1000
1000
0100
1001
0010
0101
0202
0000
0303
1000
0010
,
1001
0100
0000
1000
0110
0001
1000
0010
1001
0100
0000
1000
0110
0001
1000
0010
,
1001
0000
0100
0000
0000
0000
1000
0000
0110
0000
0001
0000
1000
0100
0010
0000
1000
0100
0010
0000
1000
0100
0010
0000
1000
0100
0010
0000
1000
0000
0010
0000
,
1001
0100
0000
1000
0110
0001
1000
0010
1001
0100
0000
1000
0110
0001
1000
1000
,
0101
0100
0010
0010
1001
0001
0110
0110
0110
0110
0110
0110
0110
0110
0011
0011
,
0011
0011
0101
0011
0000
0011
0101
0011
0000
0011
0101
0011
0000
0011
0011
0011
,
0011
0011
0101
0011
0000
0011
0101
0011
0000
0011
0101
0010
0010
0100
0100
0000
;
